найдиЭто отследиЭто напишиНам помогиСебе

Автомобильный регистратор F900LHD c DX

Хвастаемся и обсуждаем покупки

Автомобильный регистратор F900LHD c DX

Сообщение admin » 06 сен 2011, 13:37

Сегодня получил 900LHD c DX (SKU 73278).
С момента отправки в Китае до РФ (трек засветился на этот же или следующий день после сообщения об отправке с DX) посылка шла неделю + одну неделю в Москве.
Коробка с регистратором была в простом пупырчатом пакете, почта была обходительна с посылкой и коробка не помялась ;).
Качество полиграфии и упаковки нареканий не вызвало, английский "качественный":
box1_172.jpg
box1_172.jpg (79.08 КБ) Просмотров: 101207

box2_694.jpg
box2_694.jpg (57.43 КБ) Просмотров: 101207

Сборка самого регистратора нареканий тоже не вызывает:
cam1_830.jpg
cam1_830.jpg (52.39 КБ) Просмотров: 101207

cam2_118.jpg
cam2_118.jpg (44.22 КБ) Просмотров: 101207

cam3_188.jpg
cam3_188.jpg (24.3 КБ) Просмотров: 101207

Комплект поставки достаточно богатый для регистратора, ненужных вещей я не заметил:
complect_234.jpg
complect_234.jpg (87.73 КБ) Просмотров: 101207

Первое включение и первая неожиданность - заставка и меню (у DOD значительно отличается):
start_up_180.jpg
start_up_180.jpg (66.13 КБ) Просмотров: 101207

menu1_102.jpg
menu1_102.jpg (82.7 КБ) Просмотров: 101207

menu2_738.jpg
menu2_738.jpg (59.24 КБ) Просмотров: 101207

Меню реализовано достаточно странно, часть настроек вызывается кнопкой menu, часть переключением кнопкой mode.

Меню вызываемое кнопкой MENU (называется VIDEO) содержит:
RESOLUTION (Full HD, 1080P30, 720P30, WVGAP60, WVGAP30)
VIDEO QUALITY (H, M, L)
RECORD OVERWRITE (NO, 2 MIN, 5 MIN, 15 MIN)
MOTION DETECTION (NO, 1 MIN, 3 MIN, 5 MIN)
RECORD TIME (OFF, 1 MIN, 5 MIN, 10 MIN, 15 MIN, 30 MIN)
POWER ON RECORD (ON, OFF)
POWER OFF DELAY (ON, OFF)
POWER ON DELAY (OFF, 10 SEC, 20, SEC, 30 SEC)
AUTO LCD OFF (OFF, 30 SEC, 60 SEC)
MIC MUTE (ON, OFF)

Кнопка MODE переключает режимы записи видео, фото, просмотр видео, просмотр фото и настройки.
Меню вызываемое кнопкой MODE (называется SETUP) содержит:
LANGUAGE (ENGLISH, JAPAN, CHS (видимо упрощенный китайский)
FORMAT - форматирование флешки
TIME SETUP
TIME STAMP (DATE/TIME, OFF, DATE, TIME)
TV TYPE (NTSC, PAL)
BEEP SOUND (ON, OFF)
VIDEO ROTATION (ON, OFF)
AUTO POWER OFF (OFF, 1 MIN, 3 MIN, 5 MIN)
DEFAULT SETTING
NIGHT MODE (OFF, ON, AUTO)
CONTRAST (STANDARD, HARD, SOFT)
FLICKER (50HZ, 60 HZ)
SHARPNESS (STANDARD, HARD, SOFT)
ISO (AUTO, 100, 200, 400)
WHITE BALANCE (AUTO, SUNNY, CLOUDY, FLUORESCENT, INCANDESCENT)
EV SETTING
FIRMWARE VERSION: 905.18

Параметры видео (снимал темноту и записывал тишину Smile:

General
ID : 0
Complete name : E:\111\MVIV0010.TS
Format : MPEG-TS
File size : 263 MiB
Duration : 5mn 0s
Overall bit rate : 7 330 Kbps
Maximum Overall bit rate : 18.0 Mbps

Video
ID : 4113 (0x1011)
Menu ID : 1 (0x1)
Format : AVC
Format/Info : Advanced Video Codec
Format profile : Main@L4.0
Format settings, CABAC : Yes
Format settings, ReFrames : 4 frames
Duration : 4mn 59s
Bit rate : 6 689 Kbps
Width : 1 920 pixels
Height : 1 080 pixels
Display aspect ratio : 16:9
Frame rate : 29.970 fps
Resolution : 24 bits
Colorimetry : 4:2:0
Scan type : Progressive
Bits/(Pixel*Frame) : 0.108
Stream size : 239 MiB (91%)

Audio
ID : 4352 (0x1100)
Menu ID : 1 (0x1)
Format : AAC
Format/Info : Advanced Audio Codec
Format version : Version 2
Format profile : LC
Muxing mode : ADTS
Duration : 4mn 59s
Bit rate mode : Constant
Bit rate : 132.3 Kbps
Channel(s) : 2 channels
Sampling rate : 48.0 KHz
Resolution : 16 bits
Stream size : 4.73 MiB (2)

Аккумулятор:
batt_538.jpg
batt_538.jpg (49.17 КБ) Просмотров: 101207


Для сравнения проехался с двумя регистраторами DOD 900HD с объективом Mega и 900LHD - DX SKU 73278.

На скриншотах хорошо видна потеря "кадров" при смене файлов (файлы по 5 минут):
file1.jpg
file1.jpg (58.56 КБ) Просмотров: 101207

file2.jpg
file2.jpg (44.01 КБ) Просмотров: 101207


Моя скорость около 80км/ч, скорость встречного потока около 60 км/ч.

Эти файлы я залил на youtube и на сервер "в оригинале":
Файл 1 оригинал | Youtube
Файл 2 оригинал | Youtube
Использовалась древняя флешка Transcend SD150x на 2 Gb, на работе проверил с флешкой Transcend SDHC 6 class 32 Gb потеря кардов аналогичная.

Для сравнения: DOD 900HD с объективом Mega. Оригинал | Youtube (на видео, внизу, видна присоска регистратора с DX).

Регистратор крепил стандартным креплением.

Проверенные функции, найденные глюки и фитчи:
- Задержка включения/выключения, HDMI - работают;
- В меню не нашел регулировку громкости звука, хотя в руководстве пользователя данный пункт меню заявлен;
- Умеет удалять "чужие" файлы в каталоге для видео, DOD не удаляет переименованные файлы;
- Дребезжит кнопка включения;
- Угол обзора незначительно шире.
http://huntit.ru - удобный поиск по аукционам и торговым площадкам.
admin
Администратор
 
Сообщения: 43
Зарегистрирован: 06 мар 2011, 23:27
Откуда: Moscow

Вернуться в Обсуждение покупок

Кто сейчас на конференции

Сейчас этот форум просматривают: нет зарегистрированных пользователей и гости: 1

cron